Концерт Стаса Михайлова в Кремле:"Только ты..." [2011 г., Шансон, DVD5]

Скачать Сидеров: ? Личеров: ? Размер: 4.35 GB

  ·     ·  

Концерт Стаса Михайлова в Кремле:"Только ты..."



Год выпуска: 2011

Страна: Россия

Жанр: Шансон

Продолжительность: 01:30:59

Описание: Стас Михайлов представит свою новую концертную программу "Только ты...". В программе прозвучат композиции с нового альбома и, конечно же, лучшие хиты музыканта. Его песни, лиричные, без громких фраз и агрессивных мелодий, привлекают слушателей своей душевностью и положительной энергией, которую они излучают. Песни эти являются органическим продолжением личности Стаса Михайлова. Мужественного, спокойного и вместе с тем страстного человека.

Качество

: DVD5

Формат: DVD video

Видео кодек: MPEG2

Аудио кодек: АС3

Видео: PAL 4:3 (720x576) VBR ~7700 Kbps

Аудио: Russian (MPEG-1, 2 ch) 384 Kbps

01 Веди меня, бог мой 02 Живи и знай 03 Кате 04 Непрощенный 05 Солдат 06 Спаси меня 07 Разрушительница 08 Если бы не ты 09 Русь 10 Ты моя 11 Просто любить 12 Странник 13 Холодно 14 Отпусти 15 Дайте мне 16 Женщина-вамп 17 Живой 18 Только ты 19 А может быть 20 Все для тебя 21 Берега мечты

Релиз:

Title: Стас Михайлов - Только ты (DVD5) Size: 4.35 Gb ( 4 565 938,00 KBytes ) - DVD-5 Enabled regions: 1, 2, 3, 4, 5, 6, 7, 8 VTS_01 : Play Length: 01:30:59 Video: PAL 4:3 (720x576) VBR Audio: Russian (Dolby AC3, 2 ch) * Menus Information * VIDEO_TS Menu Video: NTSC 4:3 (720x480) VBR Auto Pan&Scan, Auto Letterboxed Language Unit : VTS_01 Menu Video: PAL 4:3 (720x576) VBR Language Unit : Root Menu General Complete name : E:\Downloads\Стас Михайлов - Только ты (DVD5) \VIDEO_TS\VIDEO_TS.BUP Format : DVD Video Format profile : Menu File size : 6.00 KiB Video ID : 224 (0xE0) Format : MPEG Video Format version : Version 1 Bit rate mode : Variable Width : 720 pixels Height : 480 pixels Display aspect ratio : 4:3 Frame rate : 29.970 fps Standard : NTSC Compression mode : Lossy General Complete name : E:\Downloads\Стас Михайлов - Только ты (DVD5) \VIDEO_TS\VIDEO_TS.IFO Format : DVD Video Format profile : Menu File size : 6.00 KiB Video ID : 224 (0xE0) Format : MPEG Video Format version : Version 1 Bit rate mode : Variable Width : 720 pixels Height : 480 pixels Display aspect ratio : 4:3 Frame rate : 29.970 fps Standard : NTSC Compression mode : Lossy General Complete name : E:\Downloads\Стас Михайлов - Только ты (DVD5) \VIDEO_TS\VTS_01_0.BUP Format : DVD Video Format profile : Program File size : 62.0 KiB Duration : 1h 30mn Overall bit rate : 93 bps Video ID : 224 (0xE0) Format : MPEG Video Format version : Version 2 Duration : 1h 30mn Bit rate mode : Variable Width : 720 pixels Height : 576 pixels Display aspect ratio : 4:3 Frame rate : 25.000 fps Standard : PAL Compression mode : Lossy Audio ID : 128 (0x80) Format : AC-3 Format/Info : Audio Coding 3 Duration : 1h 30mn Channel (s) : 2 channels Sampling rate : 48.0 KHz Compression mode : Lossy Language : Russian Menu Duration : 1h 30mn 00:00:00.000 : Chapter 1 00:05:03.680 : Chapter 2 00:08:27.680 : Chapter 3 00:12:56.560 : Chapter 4 00:16:36.680 : Chapter 5 00:20:36.960 : Chapter 6 00:25:19.360 : Chapter 7 00:29:05.520 : Chapter 8 00:33:17.040 : Chapter 9 00:37:20.200 : Chapter 10 00:39:20.040 : Chapter 11 00:43:42.720 : Chapter 12 00:47:59.640 : Chapter 13 00:51:37.520 : Chapter 14 00:56:06.000 : Chapter 15 00:59:50.200 : Chapter 16 01:04:27.440 : Chapter 17 01:08:10.560 : Chapter 18 01:14:15.320 : Chapter 19 01:17:57.640 : Chapter 20 01:22:19.320 : Chapter 21 01:26:56.920 : Chapter 22 List (Audio) : 0 General Complete name : E:\Downloads\Стас Михайлов - Только ты (DVD5) \VIDEO_TS\VTS_01_0.IFO Format : DVD Video Format profile : Program File size : 62.0 KiB Duration : 1h 30mn Overall bit rate : 93 bps Video ID : 224 (0xE0) Format : MPEG Video Format version : Version 2 Duration : 1h 30mn Bit rate mode : Variable Width : 720 pixels Height : 576 pixels Display aspect ratio : 4:3 Frame rate : 25.000 fps Standard : PAL Compression mode : Lossy Audio ID : 128 (0x80) Format : AC-3 Format/Info : Audio Coding 3 Duration : 1h 30mn Channel (s) : 2 channels Sampling rate : 48.0 KHz Compression mode : Lossy Language : Russian Menu Duration : 1h 30mn 00:00:00.000 : Chapter 1 00:05:03.680 : Chapter 2 00:08:27.680 : Chapter 3 00:12:56.560 : Chapter 4 00:16:36.680 : Chapter 5 00:20:36.960 : Chapter 6 00:25:19.360 : Chapter 7 00:29:05.520 : Chapter 8 00:33:17.040 : Chapter 9 00:37:20.200 : Chapter 10 00:39:20.040 : Chapter 11 00:43:42.720 : Chapter 12 00:47:59.640 : Chapter 13 00:51:37.520 : Chapter 14 00:56:06.000 : Chapter 15 00:59:50.200 : Chapter 16 01:04:27.440 : Chapter 17 01:08:10.560 : Chapter 18 01:14:15.320 : Chapter 19 01:17:57.640 : Chapter 20 01:22:19.320 : Chapter 21 01:26:56.920 : Chapter 22 List (Audio) : 0 General Complete name : E:\Downloads\Стас Михайлов - Только ты (DVD5) \VIDEO_TS\VTS_01_0.VOB Format : MPEG-PS File size : 248 KiB Duration : 400ms Overall bit rate : 5 079 Kbps Writing library : (c) 1998-2009 Womble Multimedia, Inc. / MPEG Video Wizard (03/2009) / Jun 24 2009 Video ID : 224 (0xE0) Format : MPEG Video Format version : Version 2 Format profile : Main@Main Format settings, BVOP : Yes Format settings, Matrix : Default Format settings, GOP : M=3, N=10 Duration : 400ms Bit rate mode : Variable Bit rate : 8 500 Kbps Width : 720 pixels Height : 576 pixels Display aspect ratio : 4:3 Frame rate : 25.000 fps Standard : PAL Color space : YUV Chroma subsampling : 4:2:0 Bit depth : 8 bits Scan type : Progressive Compression mode : Lossy Bits/ (Pixel*Frame) : 0.820 Stream size : 415 KiB Writing library : (c) 1998-2009 Womble Multimedia, Inc. / MPEG Video Wizard (03/2009) / Jun 24 2009 Text ID : 189 (0xBD) -32 (0x20) Format : RLE Format/Info : Run-length encoding Muxing mode : DVD-Video Menu General Complete name : E:\Downloads\Стас Михайлов - Только ты (DVD5) \VIDEO_TS\VTS_01_1.VOB Format : MPEG-PS File size : 1 024 MiB Duration : 21mn 47s Overall bit rate : 6 568 Kbps Writing library : (c) 1998-2009 Womble Multimedia, Inc. / MPEG Video Wizard (03/2009) / Jun 24 2009 Video ID : 224 (0xE0) Format : MPEG Video Format version : Version 2 Format profile : Main@Main Format settings, BVOP : Yes Format settings, Matrix : Default Duration : 21mn 47s Bit rate mode : Variable Bit rate : 6 245 Kbps Nominal bit rate : 8 000 Kbps Width : 720 pixels Height : 576 pixels Display aspect ratio : 4:3 Frame rate : 25.000 fps Standard : PAL Color space : YUV Chroma subsampling : 4:2:0 Bit depth : 8 bits Scan type : Interlaced Scan order : Top Field First Compression mode : Lossy Bits/ (Pixel*Frame) : 0.602 Stream size : 974 MiB (95%) Writing library : (c) 1998-2009 Womble Multimedia, Inc. / MPEG Video Wizard (03/2009) / Jun 24 2009 Audio ID : 189 (0xBD) -128 (0x80) Format : AC-3 Format/Info : Audio Coding 3 Mode extension : CM (complete main) Muxing mode : DVD-Video Duration : 21mn 47s Bit rate mode : Constant Bit rate : 192 Kbps Channel (s) : 2 channels Channel positions : Front: L R Sampling rate : 48.0 KHz Bit depth : 16 bits Compression mode : Lossy Stream size : 29.9 MiB (3%) Menu General Complete name : E:\Downloads\Стас Михайлов - Только ты (DVD5) \VIDEO_TS\VTS_01_2.VOB Format : MPEG-PS File size : 1 024 MiB Duration : 20mn 59s Overall bit rate : 6 822 Kbps Video ID : 224 (0xE0) Format : MPEG Video Format version : Version 2 Format profile : Main@Main Format settings, BVOP : Yes Format settings, Matrix : Default Duration : 20mn 59s Bit rate mode : Variable Bit rate : 6 494 Kbps Nominal bit rate : 8 000 Kbps Width : 720 pixels Height : 576 pixels Display aspect ratio : 4:3 Frame rate : 25.000 fps Standard : PAL Color space : YUV Chroma subsampling : 4:2:0 Bit depth : 8 bits Scan type : Interlaced Scan order : Top Field First Compression mode : Lossy Bits/ (Pixel*Frame) : 0.626 Stream size : 975 MiB (95%) Audio ID : 189 (0xBD) -128 (0x80) Format : AC-3 Format/Info : Audio Coding 3 Mode extension : CM (complete main) Muxing mode : DVD-Video Duration : 20mn 59s Bit rate mode : Constant Bit rate : 192 Kbps Channel (s) : 2 channels Channel positions : Front: L R Sampling rate : 48.0 KHz Bit depth : 16 bits Compression mode : Lossy Delay relative to video : -72ms Stream size : 28.8 MiB (3%) Menu General Complete name : E:\Downloads\Стас Михайлов - Только ты (DVD5) \VIDEO_TS\VTS_01_3.VOB Format : MPEG-PS File size : 1 024 MiB Duration : 20mn 39s Overall bit rate : 6 932 Kbps Video ID : 224 (0xE0) Format : MPEG Video Format version : Version 2 Format profile : Main@Main Format settings, BVOP : Yes Format settings, Matrix : Default Format settings, GOP : M=3, N=15 Duration : 20mn 38s Bit rate mode : Variable Bit rate : 6 602 Kbps Nominal bit rate : 8 000 Kbps Width : 720 pixels Height : 576 pixels Display aspect ratio : 4:3 Frame rate : 25.000 fps Standard : PAL Color space : YUV Chroma subsampling : 4:2:0 Bit depth : 8 bits Scan type : Interlaced Scan order : Top Field First Compression mode : Lossy Bits/ (Pixel*Frame) : 0.637 Stream size : 975 MiB (95%) Audio ID : 189 (0xBD) -128 (0x80) Format : AC-3 Format/Info : Audio Coding 3 Mode extension : CM (complete main) Muxing mode : DVD-Video Duration : 20mn 39s Bit rate mode : Constant Bit rate : 192 Kbps Channel (s) : 2 channels Channel positions : Front: L R Sampling rate : 48.0 KHz Bit depth : 16 bits Compression mode : Lossy Delay relative to video : -24ms Stream size : 28.4 MiB (3%) Menu General Complete name : E:\Downloads\Стас Михайлов - Только ты (DVD5) \VIDEO_TS\VTS_01_4.VOB Format : MPEG-PS File size : 1 024 MiB Duration : 20mn 41s Overall bit rate : 6 917 Kbps Video ID : 224 (0xE0) Format : MPEG Video Format version : Version 2 Format profile : Main@Main Format settings, BVOP : Yes Format settings, Matrix : Default Format settings, GOP : M=3, N=15 Duration : 20mn 41s Bit rate mode : Variable Bit rate : 6 588 Kbps Nominal bit rate : 8 000 Kbps Width : 720 pixels Height : 576 pixels Display aspect ratio : 4:3 Frame rate : 25.000 fps Standard : PAL Color space : YUV Chroma subsampling : 4:2:0 Bit depth : 8 bits Scan type : Interlaced Scan order : Top Field First Compression mode : Lossy Bits/ (Pixel*Frame) : 0.635 Stream size : 975 MiB (95%) Audio ID : 189 (0xBD) -128 (0x80) Format : AC-3 Format/Info : Audio Coding 3 Mode extension : CM (complete main) Muxing mode : DVD-Video Duration : 20mn 41s Bit rate mode : Constant Bit rate : 192 Kbps Channel (s) : 2 channels Channel positions : Front: L R Sampling rate : 48.0 KHz Bit depth : 16 bits Compression mode : Lossy Delay relative to video : 8ms Stream size : 28.4 MiB (3%) Menu General Complete name : E:\Downloads\Стас Михайлов - Только ты (DVD5) \VIDEO_TS\VTS_01_5.VOB Format : MPEG-PS File size : 363 MiB Duration : 6mn 51s Overall bit rate : 7 386 Kbps Video ID : 224 (0xE0) Format : MPEG Video Format version : Version 2 Format profile : Main@Main Format settings, BVOP : Yes Format settings, Matrix : Default Format settings, GOP : M=3, N=15 Duration : 6mn 51s Bit rate mode : Variable Bit rate : 7 047 Kbps Nominal bit rate : 8 000 Kbps Width : 720 pixels Height : 576 pixels Display aspect ratio : 4:3 Frame rate : 25.000 fps Standard : PAL Color space : YUV Chroma subsampling : 4:2:0 Bit depth : 8 bits Scan type : Interlaced Scan order : Top Field First Compression mode : Lossy Bits/ (Pixel*Frame) : 0.680 Stream size : 346 MiB (95%) Audio ID : 189 (0xBD) -128 (0x80) Format : AC-3 Format/Info : Audio Coding 3 Mode extension : CM (complete main) Muxing mode : DVD-Video Duration : 6mn 51s Bit rate mode : Constant Bit rate : 192 Kbps Channel (s) : 2 channels Channel positions : Front: L R Sampling rate : 48.0 KHz Bit depth : 16 bits Compression mode : Lossy Delay relative to video : -96ms Stream size : 9.42 MiB (3%)


_________________